The Walking Dead Season 3 (2013) Bluray 720p AAC x264 – aSOUL


“The Walking Dead” (2010)

Director(s): Ernest R. Dickerson, Guy Ferland, Greg Nicotero, Bill Gierhart, David Boyd
Writer(s): Charlie Adlard, Frank Darabont, Robert Kirkman, Tony Moore, Glen Mazzara
Cast: Andrew Lincoln, Steven Yeun, Chandler Riggs, Norman Reedus, Melissa McBride
IMDB: http://www.imdb.com/title/tt1520211/
Rating: 8.8 (352,908 votes)
Genres: Drama, Horror, Thriller
Runtime:  mins
Languages: English
Country(s): USA
Plot outline: Police officer Rick Grimes leads a group of survivors in a world overrun by zombies.

Blu-ray bonus features included (Info taken from blu-ray.com):

Rising Son (HD, 6:47): A look at casting Chandler Riggs and the character’s arc through the series and in season three in particular.

Evil Eye (HD, 7:54): An examination of “The Governor,” including the character traits and dichotomy between the Woodbury exterior and the dark interior. It also highlights the character’s evolution and David Morrissey’s performance.

Gone, But Not Forgotten (HD, 8:14): A piece that focuses on the death of a character, death scene makeup and prosthetics, and the emotional on-set and on-screen feelings surrounding the death.

Heart of a Warrior (HD, 8:25): This featurette examines Michonne, including Danai Gurira’s performance, her conflict with Merle, and her deeper character traits.

Michonne vs. The Governor (HD, 5:13): A closer look into one of the season’s driving conflicts with emphasis on the making of one scene.

Safety Behind Bars (HD, 9:44): Cast and crew discuss the prison location, the prison’s place in the show, and the process of constructing the set and the amount of detail that went into making it.

Making the Dead (HD, 8:06): A detailed focus on zombie construction and the visual effects that support their “lives” and “deaths,” both practical and digital.

Guts and Glory (HD, 7:42): A look at additional character deaths.

Deleted Scenes (HD, 13:20): Scenes from “Walk With Me,” “Say the Word,” “Hounded,” “Home,” “I Ain’t No Judas,” and “Clear

Source: The.Walking.Dead.S03.Blu-ray.1080p.AVC.TrueHD.7.1 (Thanks)

Description typical of all

General
Complete name : S03E04 Killer Within.mp4
Format : MPEG-4
Format profile : Base Media
Codec ID : isom
File size : 1.02 GiB
Duration : 42mn 59s
Overall bit rate mode : Variable
Overall bit rate : 3 391 Kbps
Encoded date : UTC 2013-09-13 23:06:00
Tagged date : UTC 2013-09-13 23:06:00
Cover : Yes

Video
ID : 1
Format : AVC
Format/Info : Advanced Video Codec
Format profile : [email protected]
Format settings, CABAC : Yes
Format settings, ReFrames : 8 frames
Codec ID : avc1
Codec ID/Info : Advanced Video Coding
Duration : 42mn 59s
Bit rate mode : Variable
Bit rate : 3 196 Kbps
Maximum bit rate : 10 000 Kbps
Width : 1 280 pixels
Height : 720 pixels
Display aspect ratio : 16:9
Frame rate mode : Constant
Frame rate : 23.976 fps
Color space : YUV
Chroma subsampling : 4:2:0
Bit depth : 8 bits
Scan type : Progressive
Bits/(Pixel*Frame) : 0.145
Stream size : 983 MiB (94%)
Title : The Walking Dead S03E04 Killer Within (2013) Bluray 720Pad AAC dxva x264
Writing library : x264 core 124 r2197 69a0443
Encoded date : UTC 2013-09-13 23:06:00
Tagged date : UTC 2013-09-13 23:07:54

Audio
ID : 2
Format : AAC
Format/Info : Advanced Audio Codec
Format profile : LC
Codec ID : 40
Duration : 42mn 59s
Bit rate mode : Variable
Bit rate : 192 Kbps
Maximum bit rate : 198 Kbps
Channel(s) : 2 channels
Channel positions : Front: L R
Sampling rate : 48.0 KHz
Compression mode : Lossy
Stream size : 59.0 MiB (6%)
Language : English
Encoded date : UTC 2013-09-13 23:07:46
Tagged date : UTC 2013-09-13 23:07:54

 

Sheriff’s deputy Rick Grimes awakens from a coma to find a post-apocalyptic world dominated by flesh-eating zombies. He sets out to find his family and encounters many other survivors along the way.

Download torrent

 

5 thoughts on “The Walking Dead Season 3 (2013) Bluray 720p AAC x264 – aSOUL

Leave a Reply

Your email address will not be published. Required fields are marked *